#TITLE:My Spirit Will Go On;
#SUBTITLE:SDO China lv30 - [N]hok[Q] Simfile;
#ARTIST:Dragonforce;
#TITLETRANSLIT:;
#SUBTITLETRANSLIT:;
#ARTISTTRANSLIT:;
#CREDIT:[N]hok[Q];
#BANNER:bn.png;
#BACKGROUND:bg.png;
#LYRICSPATH:;
#CDTITLE:cd.png;
#MUSIC:My Spirit Will Go On.mp3;
#OFFSET:-0.021;
#SAMPLESTART:52.221;
#SAMPLELENGTH:14.100;
#SELECTABLE:YES;
#DISPLAYBPM:200.000;
#BPMS:0.000=200.000,72.000=133.531,72.500=398.230,73.000=133.531,73.500=398.230,74.000=133.531,74.500=398.230,75.000=133.531,75.500=398.230,76.000=200.000,167.000=133.531,167.500=398.230,168.000=133.531,168.500=398.230,169.000=200.000,170.000=60.403,170.000=298.578,170.875=200.000,215.875=133.531,216.375=398.230,216.875=200.000,294.875=133.531,295.375=398.230,295.875=200.000,302.875=133.531,303.375=398.230,303.875=200.000,310.875=133.531,311.375=398.230,311.875=200.000,318.875=133.531,319.375=398.230,319.875=200.000,360.875=133.531,361.375=398.230,361.875=200.000,362.875=133.531,363.375=398.230,363.875=200.000;
#STOPS:170.000=0.124
;
#BGCHANGES:;
// cache tags:
#FIRSTBEAT:4.000;
#LASTBEAT:386.875;
#SONGFILENAME:Songs/sdo pack 6/My Spirit Will Go On/My Spirit Will Go On.sm;
#HASMUSIC:1;
#HASBANNER:1;
#MUSICLENGTH:116.352;
// end cache tags

//---------------dance-single - ----------------
#NOTES:
     dance-single:
     :
     Hard:
     30:
     1.000,1.000,1.000,0.284,1.000,1150.000,288.000,33.000,0.000,28.000:
0000
0000
0000
0000
,
1000
0010
0100
0001
0010
1000
0001
0100
,
0010
0001
0100
0010
1000
0001
0100
0010
,
0001
0100
0010
1000
0001
0100
0010
0001
,
1000
0010
0100
0010
0100
0001
0100
0010
,
1000
0001
0100
0010
0100
0001
1000
0010
,
0100
0001
1000
0010
0100
0010
1000
0010
,
0001
0100
0010
1000
0001
0100
0010
1000
,
0100
0010
1000
0001
0010
0010
0100
0100
,
0011
1000
0011
0000
1100
0000
0011
0000
1001
0010
0100
0000
1001
0100
0010
0000
,
1100
0001
1010
0000
0101
0000
0110
0000
1001
0100
0010
0000
1010
0001
0100
0000
,
0011
1000
0110
0000
0011
0000
1100
0000
1010
0100
0001
0000
1010
0100
0010
0000
,
0101
0010
1001
0000
0110
0000
1010
0000
0101
0010
1000
0000
0110
0001
1000
0000
,
0111
1000
0011
0000
0101
0000
1101
0010
1001
0100
0011
0000
1110
0001
0100
0000
,
1011
0100
1010
0000
0101
0000
1110
0001
1010
0100
0011
0000
1101
0010
0100
0000
,
1011
0100
0011
0000
0110
0000
1101
0010
1001
0100
1010
0000
0101
0010
1100
0000
,
0111
1000
0101
0000
0110
0000
1110
0001
1010
0100
0011
0000
1101
0010
0101
0000
,
1001
0100
1010
0100
1001
0100
1010
0100
1001
0010
0101
0010
1001
0010
0101
0010
,
1101
0111
1110
1011
,
0100
0000
1001
0000
0010
0100
0011
0000
0100
0100
1010
0000
0001
0100
0011
0000
,
1000
0000
1100
0000
0010
1000
0110
0000
0001
1000
0101
0000
0010
0010
1010
0000
,
0100
0000
0101
0000
1000
0010
1100
0000
0010
1000
0011
0000
0100
0001
1010
0000
,
0100
0000
0011
0000
0001
1000
0011
0000
0100
0100
1010
0000
0001
1000
0110
0000
,
0001
0000
1100
0000
0010
1000
0101
0000
1000
0001
0110
0000
1000
0001
1100
0000
,
0010
0000
1001
0000
0100
0010
1001
0000
0010
0100
1001
0000
0010
0100
0011
0000
,
1000
0001
1100
0000
0010
0100
0011
0000
1000
0001
0110
0000
0001
0010
1001
0100
,
0010
0100
0011
1000
0100
0010
1001
0100
0010
0001
0100
0010
0001
0010
1000
0100
,
0010
0000
1100
0000
0010
1000
0011
0000
0100
0001
1010
0000
0100
0010
1001
0000
,
0010
0000
0101
0000
1000
0010
1100
0000
0001
1000
0011
0000
1000
0100
0010
1000
,
0001
0000
0110
0000
0001
1000
0011
0000
0100
0010
1100
0000
0010
1000
0101
0000
,
0010
0001
0100
0010
1000
0100
0010
0001
1000
0100
0010
1000
0001
0010
0100
0001
,
1010
0000
1000
0000
0110
0001
1100
0000
0010
0100
0010
0000
1001
0100
0010
0000
,
1100
0000
0011
0000
0001
0010
1100
0000
0001
1000
0100
0000
1010
0001
0100
0000
,
0011
0000
0100
0000
1010
0001
1100
0000
0010
1000
0001
0010
1100
0000
0001
0100
,
1020
0000
0000
0000
0001
0000
1000
0000
0100
0000
0001
0000
1000
0000
0100
0000
0001
0000
1000
0000
0100
0000
0001
0030
1000
0000
0100
0000
0010
0000
1000
0000
,
0010
0001
0110
0001
0010
0001
0010
0001
0010
0001
0010
0001
0010
0001
0010
0001
,
0010
0001
0110
0001
0010
0001
1010
0001
0010
0001
0110
0001
0010
0001
1010
0001
,
0100
1000
0110
1000
0100
1000
0101
1000
0100
1000
0110
1000
0100
1000
0101
1000
,
0100
1000
0110
1000
0100
1000
0101
1000
0100
1000
0110
1000
0100
1000
0101
1000
,
0110
0001
1000
0100
0010
1000
0101
0010
1000
0100
0010
1000
0011
1000
0100
0010
,
0101
0010
1000
0100
1010
0000
0101
0010
1000
0100
0010
0001
1100
0010
0001
0010
,
0101
0000
0000
0000
0000
0000
0010
0000
0000
0000
0000
0100
0000
0000
0000
0000
,
0102
0000
0000
0000
0000
0000
0000
0000
0000
0003
0120
0000
0000
0000
0000
0000
0030
0000
0000
2101
0000
0000
0000
0000
0000
0000
0000
0000
0000
0000
3000
0010
,
0000
0001
0000
1100
0000
0000
0000
0010
0000
0100
0000
0011
0000
0000
0000
1000
0000
0010
0000
1000
0000
0000
0000
0001
0000
0010
0000
1100
0000
0000
0000
0001
,
0000
0100
0000
0011
0000
0000
0000
1000
0000
0010
0000
1100
0000
0000
0000
0001
0000
0100
0000
0011
0000
0000
0000
1000
0000
0010
0000
1100
0000
0000
0000
0010
,
0000
0010
0000
0101
0000
0000
0000
0100
0000
0100
0000
1010
0000
0000
0000
0001
0000
0100
0000
0011
0000
0000
0000
1000
0000
0100
0000
0011
0000
0100
0000
1001
,
0000
0010
0000
0100
0000
0010
0000
1000
0000
0001
0000
1100
0000
0001
0000
0010
0000
0100
0000
0001
0000
0010
0000
1000
0000
0100
0000
0010
0000
0001
0000
1000
,
0000
0010
0000
1100
0000
0000
0000
0001
0000
0100
0000
0011
0000
0000
0000
0100
0000
0100
0000
0011
0000
0000
0000
0001
0000
0001
0000
1100
0000
0000
0000
0010
,
0000
1000
0000
0011
0000
0000
0000
0100
0000
0001
0000
1100
0000
0000
0000
0001
0000
1000
0000
0011
0000
0000
0000
0100
0000
0010
0000
1001
0000
0000
0000
0100
,
0000
0010
0000
1100
0000
0000
0000
0010
0000
1000
0000
0110
0000
0000
0000
0001
0000
1000
0000
0101
0000
0000
0000
0010
0000
1000
0000
0011
0000
0000
0000
0100
,
0000
0010
0000
1100
0000
0000
0000
0001
0000
1000
0000
0011
0000
0000
0000
0100
0000
0010
0000
1001
0000
0000
0000
0010
0000
1000
0000
0100
0000
0010
0000
1100
,
0000
0001
0000
0100
0000
0010
0000
1000
0000
0001
0000
0110
0000
1000
0000
0010
0000
0100
0000
0001
0000
0010
0000
1001
0000
0100
0000
0010
0000
0001
0000
1010
,
0000
0100
0000
0001
0000
0010
0000
1000
0000
0001
0000
1100
0000
0010
0000
1000
0000
0001
0000
0010
0000
0100
0000
0011
0000
1000
0000
0100
0000
0010
0000
1000
,
0000
0001
0000
1000
0000
0001
0000
1000
0000
0001
0000
1000
0000
0001
0000
1000
0000
0001
0000
1000
0000
0001
0000
1000
0000
0001
0000
1000
0000
0001
0000
0110
,
0000
0000
0000
0000
0000
0000
0000
0000
0000
0000
0000
0010
0000
0000
0000
0000
0000
0000
0000
0000
0000
0000
0000
0100
0000
0000
0000
0000
0000
0000
0000
1010
,
0000
0000
0000
1000
0000
0000
0000
0011
0000
0000
0000
0100
0000
0000
0000
1001
0000
0000
0000
0001
0000
0000
0000
0110
0000
0000
0000
0010
0000
0000
0000
0101
,
0000
0000
0000
0010
0000
0000
0000
0101
0000
0000
0000
0010
0000
0000
0000
1100
0000
0000
0000
0001
0000
0001
0000
0110
0000
0000
0000
1010
0000
0000
0000
0100
,
0000
0000
0000
0011
0000
0000
0000
1010
0000
0000
0000
1000
0000
0000
0000
0101
0000
0000
0000
0010
0000
0000
0000
1001
0000
0000
0000
0100
0000
0000
0000
0010
,
0000
0000
0000
1100
0000
0000
0000
0001
0000
0000
0000
0110
0000
0000
0000
1001
0000
0000
0000
0100
0000
0100
0000
1010
0000
0000
0000
0101
0000
0000
0000
1000
,
0000
0000
0000
0011
0000
0000
0000
1001
0000
0000
0000
0100
0000
0000
0000
1010
0000
0000
0000
0100
0000
0000
0000
1010
0000
0000
0000
0100
0000
0000
0000
0011
,
0000
0000
0000
1000
0000
0000
0000
0101
0000
0000
0000
0010
0000
0000
0000
1001
0000
0000
0000
1000
0000
1000
0000
0011
0000
0000
0000
0110
0000
0000
0000
1000
,
0000
0000
0000
0011
0000
0100
0000
1001
0000
0000
0000
0110
0000
0001
0000
1010
0000
0000
0000
0101
0000
0010
0000
1001
0000
0000
0000
0110
0000
1000
0000
0010
,
0000
0000
0000
1001
0000
0010
0000
1100
0000
0000
0000
1010
0000
0100
0000
0011
0000
0000
0000
1100
0000
0001
0000
1010
0000
0000
0000
2010
0000
0000
0000
0000
,
0000
0000
0000
0000
0000
0000
0000
0000
0000
0000
0000
0000
0000
0000
0000
0000
0000
0000
0000
0000
0000
0000
0000
0000
0000
0000
0000
0000
0000
0000
3000
0012
,
0000
0100
0000
0010
0000
0000
0003
1200
0000
0010
0000
1000
0000
0000
0300
0021
0000
1000
0000
0001
0000
0000
0030
1001
0000
0100
0000
0011
0000
0000
0000
1100
,
0000
0001
0000
1010
0000
0000
0000
0101
0000
0010
0000
1100
0000
0000
0000
0010
0000
0001
0000
2100
0000
0000
0000
0010
0000
0001
0000
0100
0000
0010
3000
0100
,
0000
0001
0000
0010
0000
1000
0000
0001
0000
1000
0000
0100
0000
0010
0000
1000
0000
0001
0000
0010
0000
0001
0000
0100
0000
0010
0000
1000
0000
0100
0000
0012
,
0000
1000
0000
0100
0000
0010
0003
1100
0000
0010
0000
1000
0000
0000
0000
0201
0000
0010
0000
1000
0000
0010
0300
1001
0000
0001
0000
1000
0000
0000
0000
0010
,
0000
1000
0000
0000
0000
0100
0000
0000
0000
0010
0000
0000
0000
1000
0000
0000
0000
0100
0000
0000
0000
0010
0000
0000
0000
1000
0000
0000
0000
0100
0000
0000
0000
0010
0000
0000
0000
1000
0000
0000
0000
0100
0000
0000
0000
1000
0000
0000
0000
0001
0000
0000
0000
0010
0000
0000
0000
1000
0000
0000
0000
0001
0000
0000
0000
0010
0000
0000
0000
0100
0000
0000
0000
0001
0000
0000
0000
0010
0000
0000
0000
0100
0000
0000
0000
0001
0000
0000
0000
0010
0000
0000
0000
1000
0000
0000
,
0000
0100
0000
0000
0000
0010
0000
0000
0000
1000
0000
0000
0000
0100
0000
0000
0000
0010
0000
0000
0000
0001
0000
0000
0000
0010
0000
0000
0000
0100
0000
0000
0000
0001
0000
0000
0000
0010
0000
0000
0000
0100
0000
0000
0000
0001
0000
0000
0000
1000
0000
0000
0000
0100
0000
0000
0000
0001
0000
0000
0000
1000
0000
0000
0000
0100
0000
0000
0000
0010
0000
0000
0000
0001
0000
0000
0000
0100
0000
0000
0000
0010
0000
0000
0000
0001
0000
0000
0000
0100
0000
0000
0000
1010
0000
0000
,
0000
0000
0000
0010
0000
0000
0000
1001
0000
0100
0000
0010
0000
0000
0000
1001
0000
0010
0000
0100
0000
1000
0000
0101
0000
0000
0000
0010
0000
0010
0000
1000
,
0000
0100
0000
0001
0000
1000
0000
0001
0000
0010
0000
1000
0000
0010
0000
0201
0000
0010
0000
1000
0000
0010
0000
1000
0000
0001
0000
0010
0000
1000
0300
0001
,
0000
0010
0000
1000
0000
0100
0000
0010
0000
0001
0000
1000
0000
0100
0000
0001
0000
0010
0000
0100
0000
0001
0000
1000
0000
0100
0000
0010
0000
0001
0000
1000
,
0000
0100
0000
0010
0000
1000
0000
0100
0000
0010
0000
0001
0000
0010
0000
0100
0000
1000
0000
0100
0000
0001
0000
1020
0000
0000
0000
0000
0000
0030
0000
0100
,
0000
0001
0000
1000
0000
0100
0000
0010
0000
0001
0000
1000
0000
0100
0000
0010
0000
1000
0000
0100
0000
0010
0000
0001
0000
0010
0000
1000
0000
0100
0000
0001
,
0000
0010
0000
0100
0000
0010
0000
1000
0000
0100
0000
0010
0000
0100
0000
0001
0000
0010
0000
0100
0000
0001
0000
2010
0000
0000
0000
0000
0000
3000
0000
0100
,
0000
0010
0000
0001
0000
0010
0000
0100
0000
1000
0000
0100
0000
0010
0000
0001
0000
0010
0000
0100
0000
1000
0000
0100
0000
0010
0000
0001
0000
0010
0000
0100
,
0000
1000
0000
0100
0000
0010
0000
0001
0000
0010
0000
0100
0000
1000
0000
0100
0000
0010
0000
0001
0000
0010
0000
0102
0000
0000
0000
0000
0000
0003
0000
1000
,
0000
0100
0000
0010
0000
1000
0000
0001
0000
0010
0000
0100
0000
0001
0000
0010
0000
0100
0000
1000
0000
0100
0000
0010
0000
0001
0000
0010
0000
0100
0000
0001
,
0000
0010
0000
1000
0000
0100
0000
0001
0000
0010
0000
1000
0000
0100
0000
0010
0000
0001
0000
0100
0000
0010
0000
0201
0000
0000
0000
0000
0000
0300
0000
0010
,
0000
0000
0000
0010
0000
0000
0000
0112
0000
0100
0000
0100
0000
0000
0003
2110
0000
0000
0000
0010
0000
0000
3000
0120
0000
0100
0000
0100
0000
0000
0030
0201
,
0000
0000
0000
0001
0000
0000
0000
0001
0000
0001
0300
1002
0000
0000
0000
1000
0000
0000
0000
1000
0000
0000
0003
2010
0000
0010
0000
0010
0000
0000
3000
0100
,
0000
0000
0000
0001
0000
0010
0000
1000
0000
0000
0000
0010
0000
0000
0000
0001
0000
0000
0000
1000
0000
0100
0000
0010
0000
0000
0000
1000
0000
0000
0000
0001
,
0000
0000
0000
0100
0000
0010
0000
1000
0000
0000
0000
0001
0000
0000
0000
0100
0000
0000
0000
0010
0000
0010
0000
1000
0000
0000
0000
0100
0000
0000
0000
2011
,
0000
0000
0000
0010
0000
0000
0000
0010
0000
0000
3000
0121
0000
0000
0000
0100
0000
0000
0000
0100
0000
0000
0030
1201
0000
0000
0000
1000
0000
0000
0300
1012
,
0000
0000
0000
0010
0000
0000
0000
0010
0000
0000
0003
2110
0000
0000
0000
0100
0000
0000
0000
0100
0000
0000
3000
0121
0000
0000
0000
0001
0000
0000
0030
1000
,
0000
0001
0000
0000
0000
1000
0000
0000
0000
0001
0000
0000
0000
1000
0000
0000
0000
0001
0000
0000
0000
1000
0000
0000
0000
0001
0000
0000
0000
1000
0000
0000
0000
0010
0000
0000
0000
0100
0000
0000
0000
0010
0000
0000
0000
0100
0000
0000
0000
0010
0000
0000
0000
0100
0000
0000
0000
0010
0000
0000
0000
0100
0000
0000
0000
0010
0000
0000
0000
1000
0000
0000
0000
0001
0000
0000
0000
1000
0000
0000
0000
0001
0000
0000
0000
1000
0000
0000
0000
0001
0000
0000
0000
0100
0000
0000
,
0000
0010
0000
0000
0000
0100
0000
0000
0000
0010
0000
0000
0000
0100
0000
0000
0000
0010
0000
0000
0000
0100
0000
0000
0000
0010
0000
0000
0000
0100
0000
0000
0000
0010
0000
0000
0000
0100
0000
0000
0000
0010
0000
0000
0000
1000
0000
0000
0000
0100
0000
0000
0000
0001
0000
0000
0000
1000
0000
0000
0000
0100
0000
0000
0000
0001
0000
0000
0000
0010
0000
0000
0000
1000
0000
0000
0000
0100
0000
0000
0000
0001
0000
0000
0000
0010
0000
0000
0000
0100
0000
0000
0000
1001
0000
0000
,
0000
0001
0000
0001
0000
0000
0000
0101
0000
0001
0000
0001
0000
0000
0000
0101
0000
0001
0000
0001
0000
0000
0000
1001
0000
0001
0000
0001
0000
0000
0000
0110
,
0000
0100
0000
0100
0000
0000
0000
0111
0000
0100
0000
0100
0000
0000
0000
0110
0000
0100
0000
0100
0000
0000
0000
0111
0000
0100
0000
0100
0000
0000
0000
1010
,
0000
0000
0000
1000
0000
0000
0000
0211
0000
0000
0000
0000
0000
0300
0000
1010
0000
0000
0000
0010
0000
0000
0000
1102
0000
0000
0000
0000
0000
0003
0000
1000
,
0000
0100
0000
0010
0000
1000
0000
0001
0000
0010
0000
0100
0000
0010
0000
1000
0000
0001
0000
0100
0000
0010
0000
1000
0000
0100
0000
0010
0000
0001
0000
0110
,
0000
1000
0000
0100
0000
1000
0000
0101
0000
1000
0000
0100
0000
1000
0000
0110
0000
1000
0000
0100
0000
1000
0000
0101
0000
1000
0000
0100
0000
1000
0000
0011
,
0000
0000
0000
0011
0000
0000
0000
0110
0000
0000
0000
1001
0000
0000
0000
0110
0000
0000
0000
0100
0000
0000
0000
1001
0000
0010
0000
0100
0000
0010
0000
1100
,
0000
0000
0000
0001
0000
0001
0000
0110
0000
1000
0000
0001
0000
0000
0000
0110
0000
0001
0000
1010
0000
0100
0000
0011
0000
0000
0000
0101
0000
0000
0000
1010
,
0000
0100
0000
0001
0000
0010
0000
1001
0000
0100
0000
0010
0000
0100
0000
1001
0000
0010
0000
0100
0000
0010
0000
2100
0000
0001
0000
0010
0000
0100
3000
0022
,
0000
0000
0000
0000
0000
0000
0000
0000
0000
0000
0000
0000
0000
0000
0000
0000
0000
0000
0000
0000
0000
0000
0000
0033
0000
0000
0000
0000
0000
0000
0000
0000
,
0000
0000
0000
0000
,
0000
0000
0000
0000
,
0000
0000
0000
0000
,
0000
0000
0000
0000
;
